» » Das Pferd - The World Of Das Pferd (1993)

Das Pferd - The World Of Das Pferd (1993)

voska89 | 0 Comments | 0 Views | Category : Music
16
04
2019

Das Pferd - The World Of Das Pferd (1993)



Artist: Das Pferd
Title: The World Of Das Pferd
Year Of Release: 1993
Label: ITM RecordsTM 1488
Genre: Jazz Rock, Fusion
Quality: FLAC (image + .cue,log,scans)
Total Time: 52:59
Total Size: 326 MB(+3%)




Tracklist
1. Index 0:58
2. De Temps En Temps 6:05
3. Something's In The Air 0:25
4. Karabenemsi 3:37
5. Yahoo 0:25
6. Kurt Billker 4:27
7. No Way To Mbroruk 1:01
8. Rebirth Of Nothing 5:33
9. Judgement Day 5:25
10. The Pitiable Leipzig Offering 4:44
11. Forgotten Principles 0:44
12. The Really Danced Bebop 3:34
13. Family Joy 2:18
14. Is That So ? 3:56
15. The Smell Of Margarine 0:15
16. Lost Shoes 3:53
17. Adeus 5:19
personnel :
Drums - Kurt Billker
Guitar - Markus Wienstroer
Keyboards, Oboe - Tobias Becker
Tenor Saxophone, Soprano Saxophone, Bass Clarinet - Wolfgang Schmidtke
Bass, Daxophone, Produced by - Jan Kazda

Exact Audio Copy V1.3 from 2. September 2016
Отчёт EAC об извлечении, выполненном 13. апреля 2019, 10:44
Das Pferd / The World Of Das Pferd - 1993
Дисковод: PIONEER BD-RW BDR-TD03 Adapter: 1 ID: 0
Режим чтения : Достоверность
Использование точного потока : Да
Отключение кэша аудио : Да
Использование указателей C2 : Нет
Коррекция смещения при чтении : 667
Способность читать области Lead-in и Lead-out : Нет
Заполнение пропущенных сэмплов тишиной : Да
Удаление блоков с тишиной в начале и конце : Нет[/center]

При вычислениях CRC использовались нулевые сэмплы : Да
Интерфейс : Встроенный Win32-интерфейс для Win NT/2000
Выходной формат : Пользовательский кодировщик
Выбранный битрейт : 128 kBit/s
Качество : Высокий
Добавление ID3-тега : Нет
Утилита сжатия : C:\Program Files (x86)\Exact Audio Copy\Flac\flac.exe
Дополнительные параметры : -V -8 -T "Date=%year%" -T "Genre=%genre%" %source%
TOC извлечённого CD
Трек | Старт | Длительность | Начальный сектор | Конечный сектор
---------------------------------------------------------------------
1 | 0:00.00 | 0:58.12 | 0 | 4361
2 | 0:58.12 | 6:05.33 | 4362 | 31769
3 | 7:03.45 | 0:25.47 | 31770 | 33691
4 | 7:29.17 | 3:37.73 | 33692 | 50039
5 | 11:07.15 | 0:25.47 | 50040 | 51961
6 | 11:32.62 | 4:27.35 | 51962 | 72021
7 | 16:00.22 | 1:01.18 | 72022 | 76614
8 | 17:01.40 | 5:36.15 | 76615 | 101829
9 | 22:37.55 | 5:28.27 | 101830 | 126456
10 | 28:06.07 | 4:44.48 | 126457 | 147804
11 | 32:50.55 | 0:44.57 | 147805 | 151161
12 | 33:35.37 | 3:34.53 | 151162 | 167264
13 | 37:10.15 | 2:21.20 | 167265 | 177859
14 | 39:31.35 | 3:56.25 | 177860 | 195584
15 | 43:27.60 | 0:15.37 | 195585 | 196746
16 | 43:43.22 | 3:57.45 | 196747 | 214566
17 | 47:40.67 | 5:19.08 | 214567 | 238499
Характеристики диапазона извлечения и сообщения об ошибках
Выбранный диапазон
Имя файла I:\Rip\Das Pferd - The World Of Das Pferd - 1993\Das Pferd - The World Of Das Pferd - 1993.wav
Пиковый уровень 99.3 %
Скорость извлечения 4.3 X
Качество диапазона 100.0 %
CRC теста 7A60B8E7
CRC копии 7A60B8E7
Копирование... OK
Ошибок не произошло

AccurateRip: сводка

Трек 1 : извлечено точно (доверие 2) [6A041B60] (AR v2)
Трек 2 : извлечено точно (доверие 2) [1E8F1DB0] (AR v2)
Трек 3 : извлечено точно (доверие 2) [E3272982] (AR v2)
Трек 4 : извлечено точно (доверие 2) [172A4241] (AR v2)
Трек 5 : извлечено точно (доверие 2) [7EA88486] (AR v2)
Трек 6 : извлечено точно (доверие 2) [F71DB4A6] (AR v2)
Трек 7 : извлечено точно (доверие 2) [3D38D9C6] (AR v2)
Трек 8 : извлечено точно (доверие 2) [7CD5A44F] (AR v2)
Трек 9 : извлечено точно (доверие 2) [C63A9B67] (AR v2)
Трек 10 : извлечено точно (доверие 2) [EF97B71A] (AR v2)
Трек 11 : извлечено точно (доверие 2) [92A49A17] (AR v2)
Трек 12 : извлечено точно (доверие 2) [A00D2CBD] (AR v2)
Трек 13 : извлечено точно (доверие 2) [33F3A958] (AR v2)
Трек 14 : извлечено точно (доверие 2) [9584568E] (AR v2)
Трек 15 : извлечено точно (доверие 2) [784D0E1D] (AR v2)
Трек 16 : извлечено точно (доверие 2) [FB93A1BA] (AR v2)
Трек 17 : извлечено точно (доверие 2) [97EAB8D8] (AR v2)

Все треки извлечены точно
Конец отчёта
---- CUETools DB Plugin V2.1.6
[CTDB TOCID: F1vtyZycpEK4fne3YW5s5Zb2WwQ-] found
Submit result: F1vtyZycpEK4fne3YW5s5Zb2WwQ- has been confirmed
Track | CTDB Status
1 | (3/3) Accurately ripped
2 | (3/3) Accurately ripped
3 | (3/3) Accurately ripped
4 | (3/3) Accurately ripped
5 | (3/3) Accurately ripped
6 | (3/3) Accurately ripped
7 | (3/3) Accurately ripped
8 | (3/3) Accurately ripped
9 | (3/3) Accurately ripped
10 | (3/3) Accurately ripped
11 | (3/3) Accurately ripped
12 | (3/3) Accurately ripped
13 | (3/3) Accurately ripped
14 | (3/3) Accurately ripped
15 | (3/3) Accurately ripped
16 | (3/3) Accurately ripped
17 | (3/3) Accurately ripped
==== Контрольная сумма отчёта 7AEC7C3E13B6F012C8444EFFC40B9D6BAADFFE356B28011C13F3BB5A3BD223D3 ====



Buy Premium From My Links To Get Resumable Support,Max Speed & Support Me

скачать dle 12.1
,..,
Comment on
Enter the code from the image:*
reload, if the code cannot be seen
все шаблоны для dle на сайте шаблоны dle 11.2 скачать